Redump ps4有一起收PS2 redump ... 本论坛禁止发布SWITCH和PS4相关资源,若有其他侵权内容,请致邮3360342659#qq.com(#替换成@)删除。 ... To browse PS2 ISOs, scroll up and choose a letter or select Browse by Genre. If you're feeling adventurous, try the advanced rom browser.07 Redump Database is an altered and edited version to focus on Redump. Pepsiman (ペプシマン) is a Action video game published by KID released on March 4th, 1999 for the Sony PlayStation. Redump Sega Cd. I changed the redump game, description and rom texts to use the hyperlist xml game text.Finish PSP USA and European sets with Redump.org; Fullset of SNES USA manual scans at 800+ dpi raw tiff. Work more closely with archive.org to democratize data. Build a website and dat for fallen-through-the-cracks roms like betas-and-such not dumped with Redump standards but need a home.superpotato retro games. 2022.03.15. オンラインショップ テスト公開中. 2021.12.28. 福袋 予約受付終了いたしました。. 2021.12.7. 福袋 予約受付始めました。. 2021.11.22. 【重要】ホームページは、2022年1月中旬を目指して開店準備中です. Search: Playstation Portable Redump. About Redump Portable PlaystationRedump Notes Arc the Lad III (Japan) (Demo 1) Japan PAPX 90099 34078: Karat PS PS2-you Pro Action Replay CDX2 (Japan) (Unl) Japan KRTCDX2 4 512323 001849. Note: many Internet Archive torrents contain a 'pad file' directory. Since this is the internet's best crowdsource for Playstation 2 information, I have some.Vimm's Lair: PlayStation Vault. Welcome to the PlayStation Vault. This Vault contains a perfect copy of every PlayStation game released in the US, scanned nightly by Redump. To play them you'll need an emulator from the Emulation Lair. All downloads are in .7z format and can be opened with the free tool 7-Zip. March's Top 10 Downloads.Finish PSP USA and European sets with Redump.org; Fullset of SNES USA manual scans at 800+ dpi raw tiff. Work more closely with archive.org to democratize data. Build a website and dat for fallen-through-the-cracks roms like betas-and-such not dumped with Redump standards but need a home.For Guitar Hero III: Legends of Rock on the Wii, a GameFAQs Q&A question titled 'Is it possible to download new songs onto Guitar Hero 3 on Wii?' Guitar Hero 3 Legends Of Rock Wii Iso Download Free...Search: Redump Sony Ps2. About Sony Redump Ps2Apr 01, 2022 · Marty Channel II [redump.org] Terra Towns II [redump.org] Towns Magazine Vol. 3 [redump.org] New not working software list additions ----- Nihongo Linux + JE [redump.org] Euphony II / MTR V1.1 L20 [redump.org] Replaced software list items ----- Nihongo Linux + JE3 [redump.org] Towns Hyakunin Isshu [redump.org] Software list items promoted to ... PS1 ROMs pack are combination of games in a single file that you can download and access after extracting the file. The downloading link for the PlayStation ROMs pack is given below from 3rd party server. These files are not hosted on our server. So you can download them at your own risk. PlayStation Roms Pack. Source.Been struggling to find redump dats for Wii U, Xbox 360, Xbox One and PS4. Can anyone link me to these? Thanks.感谢 @suxm ,PS2 redump ... 本论坛禁止发布SWITCH和PS4相关资源,若有其他侵权内容,请致邮3360342659#qq.com(#替换成@)删除。 ... Redump.org provides guides to ensure users can dump their media using the most accurate method available to achieve as close to a 1:1 backup as possible. Users are encouraged to follow the guides correctly and share their results to help build and populate the database.Not a stupid question man; it's good to know what version you're playing. Looking on redump.org, your serial (SLES-50330#) and barcode coincides with the 1.60 version from Australia (I know your disc is French). All PS5, PS4 Crossplay Games. 6 days ago. New PS5 Games Release Dates in 2022. Fri 18th Mar 2022. All PS5 Games Running at 120 Frames-Per-Second. 5 days ago. Search: Redump Sony Ps2. About Redump Sony Ps2Apr 22, 2021 · The best Dreamcast games are proof that a console doesn't need a long life to make an impression. Sega took a big risk in launching the Dreamcast back in 1998, creating an affordable console with ... 2003-10-12. Editorial: Atlus. Idiomas: Inglés, francés, Alemania. Formato de imagen: ISO. Descripción: Shin Megami Tensei III: Nocturne es un videojuego de rol publicado por Atlus lanzado el 12 de octubre de 2003 para Sony PlayStation 2.PS4 PS4HEN v2.1.3 (fork by Joonie) - 6.72 Jailbreak / Homebrew Enabler + Additional Features for 6.72.The required format for the CD images is BIN+CUE. If the CUE is missing, you can create it like this: FILE "NameOfTheBin.bin" BINARY TRACK 01 MODE2/2352 INDEX 01 00:00:00. We recommand CD images from Redump.Redump - disc images information. org] Sony PlayStation (USA) (20130213) 449. Topics redump, redump. Feel free to register and add your own information, if you choose to do this and wish to edit, please read this as it may be helpful Mediawiki HelpIf you need any help of guidance, pop onto our Discord.Redump hits is 60k Unique Disc Entry!! wave gamecube gameshark hardware mailbox news nintendo odd pc playstation playstation 1 playstation 2 preproduction press press kit ps1 ps2 ps3 ps4 psx redump sega sony wii u xploder. org Courses.Download your favorites PlayStation 2 games! Relevant FAQ entries: How to emulate with PCSX2 Screenshots: (click to enlarge) Stella Deus: The Gate of Eternity (USA) PS2 ISO Download: Filename. Stella Deus - The Gate of Eternity (USA).iso download. Description:Stella Deus: The Gate of Eternity is a Tactical RPG video game published by Atlus, Pinegrow released on April 26, 2005 for the Sony ...The Original Playstation 1 gets the optical drive emulator treatment! It seems that every retro console wih a optical drive is getting into the ODE game - Optical Drive Emulator! The first Console to have this addition was the Sega Dreamcast (gdmenu) , which allows you to play your games running from a micro sd card and replaces the optical ...Please review the important guidelines outlined in this forum thread regarding submission of both new discs and verifications: Redump Submissions. The required information for a submission is: Title of the game Category (usually 'Game'). Media type: either BD-25 or BD-50 Serial on the disc and, if it's different, serial on the cover (spine)ARK: Survival Evolved. Over 80 creatures can be tamed using a challenging subdue-&-protect process. Weaken a feral creature to knock it out, and then nursing it to health. Once tamed, you can issue commands to your Pet, which it may follow depending on how well you’ve tamed and trained it. Pets continue to level-up and consume food, and carry ... How to Run PS3 ISO Game Files on the RPCS3 PS3 EmulatorComplete RPCS3 Installation Guide: https://www.youtube.com/watch?v=q9eXRqgQHCcRPCS3 Official Site: htt...Redump hits is 60k Unique Disc Entry!! wave gamecube gameshark hardware mailbox news nintendo odd pc playstation playstation 1 playstation 2 preproduction press press kit ps1 ps2 ps3 ps4 psx redump sega sony wii u xploder. Based on research from missing version numbers, alternative releases, or non-redump dumps.Subscribe http://bit.ly/2oUkw8nSupport me/Donate: http://bit.ly/2oVO5GZFollow me on Twitter: https://twitter.com/ChrisZanarBecome my Patreon: https://www....Sony PlayStation 4 PAL Missing Dumps. This version replaced CUSA-00052 on PSN, which was not USK (Germany) certified. Disc release of that version only has PEGI and OFLC ratings. 00563 version has PEGI, OFLC and USK ratings on disc. Barcode: 8717418435493 (packaging), 8717418435585 (Keep case)Been struggling to find redump dats for Wii U, Xbox 360, Xbox One and PS4. Can anyone link me to these? Thanks.Sep 19, 2018 · The Rarest and Most Valuable Playstation 2 (PS2) Games. The PS2 has recently entered the point where there’s a lot of cheap gems our there as a lot of gamers have moved away from the system, but not in full “retro mode” of collecting yet. Transfer the dump file into the id8 folder. Transfer update 1.2 +B files to the id8 folder. Drag and drop English Translation Pack files into the id8 folder. * Booting up game and installing 1.2 +D unlock update * Open TeknoParrotUI.exe. Select Initial D8 Infinity & go to game settings. Locate the ID8 dump file we just transferred. highmark stadium suites; 3d-printed clothes at home; toulouse vs le havre prediction; mayo v meath 1996 teams. barrett-jackson mohegan sun 2022; citizens project voter guide 2021 Sep 19, 2018 · The Rarest and Most Valuable Playstation 2 (PS2) Games. The PS2 has recently entered the point where there’s a lot of cheap gems our there as a lot of gamers have moved away from the system, but not in full “retro mode” of collecting yet. ARK: Survival Evolved. Over 80 creatures can be tamed using a challenging subdue-&-protect process. Weaken a feral creature to knock it out, and then nursing it to health. Once tamed, you can issue commands to your Pet, which it may follow depending on how well you’ve tamed and trained it. Pets continue to level-up and consume food, and carry ... A *GUI* application made for speed up ps4 game download speed *by using aria2* Based on Electron for MacOS Windows Linux. ... Playstation models and BIOS guide with redump-based DAT-file for BIOS. NO BIOS DOWNLOAD!Redump hits is 60k Unique Disc Entry!! wave gamecube gameshark hardware mailbox news nintendo odd pc playstation playstation 1 playstation 2 preproduction press press kit ps1 ps2 ps3 ps4 psx redump sega sony wii u xploder. ISO 9660, PS3, PS2, PSP, PSX are currently readable and files can be extracted. 11 NEC PC-FX.Search: Redump Psx M. The aim is to turn this in to a toolkit for all the disparate conversions and formats Thanks for your support I changed the redump game, description and rom texts to use the hyperlist xml game text Kinda glad because those are the only RD sets I have org's goal is to have a complete database of disc-based media using only original media org's goal is to have a complete ...Feb 23, 2022 · Redump 3DO Redump Sega Cd I'm an '80s kid so my first foray was the C64 then an Amiga 600 so for me they're absolutely necessary, then things like the Megadrive and Snes as well old cartridge based systems whch aren't overly mem heavy I received at least 20 answers over the last days and im still receiving them . Officieusement appelé Mame And Mess Emulators, MAME est un émulateur Arcade et Consoles/Ordinateurs qui relie les anciens MAME et MESS dans un seul émulateur multi-usages émulant plus de 2150 systèmes différents. Couplé au frontend QMC2, vous pouvez alors utiliser tous les fichiers Mame extras & Mess Extras. En résumé: Today is a bittersweet day.Fix bug with PS4 attribute 2 metadata. 1.2 (08/15/2018): Add -d option to specify temp directory Add support for PS4 discs with multiple game packages, such as Life Is Strange: Before the Storm. Download from the Read Game ID page.Half dead 2. 75 for subscribers Ministers not listening to us, say scientists Delicious recipes from Ottolenghi’s new book Experts fear they have been sidelined at crucial Shop our great selection of video games, consoles and accessories for Xbox One, PS4, Wii U, Xbox 360, PS3, Wii, PS Vita, 3DS and more. Search: Huskee 20 Ton Log Splitter Parts. Download your favorites PlayStation 2 games! Relevant FAQ entries: How to emulate with PCSX2 Screenshots: (click to enlarge) Stella Deus: The Gate of Eternity (USA) PS2 ISO Download: Filename. Stella Deus - The Gate of Eternity (USA).iso download. Description:Stella Deus: The Gate of Eternity is a Tactical RPG video game published by Atlus, Pinegrow released on April 26, 2005 for the Sony ...The required format for the CD images is BIN+CUE. If the CUE is missing, you can create it like this: FILE "NameOfTheBin.bin" BINARY TRACK 01 MODE2/2352 INDEX 01 00:00:00. We recommand CD images from Redump. Press the New button at the bottom and create a file the same name as your PSX ROM. For example, if you are using Diablo.pbp or Diablo.cue then call the new memory card file Diablo.mcr. Ensure you select the Other - AdriPSX, FPSE, pcsx format in the dropdown menu, then press Save. In a word, here, we will collect and share any existing BIOS files required by any kinds of game console emulators (including 3DO, Amiga, Atari, ColecoVision, Mixed bios for multiple consoles, Nintendo, Obscure consoles, PCE CD-ROM System, Philips CD-I, PlayStation, PS2, Sega, and more platforms) on the entire Internet.PS4 Jailbreak, Exploits & Hacks. ... PlayStation 4 6.72 Jailbreak. Latest: decrypt redump iso Coro Mar 18, 2022. 25 381 RSS. PS1 on PS2 Playing PlayStation 1 (PS1/PSX) on the PS4. Latest: PSX-FPKG 0.2 by Jabu - New tool to convert PS1 games for PS4 Coro Feb 28, 2022. 1 101 RSS.Nombre del juego: Shin Megami Tensei Persona 3 FES Consola: Sony PlayStation 2 Categoría Redump Lanzamiento del juego: 2008-04-22 Editorial: Atlus Idiomas: inglés Formato de imagen:... agosto 27, 2020. 0. PS2 / RPG.Redump - disc images information. Just to clear up some confusion, Redump.org is and always will be a public preservation project that is open to new contributors. Deadpool (A0100-V0100) (CUSA03528) PS4 PKG [AUCTOR.TV] 3: 7: 2: Mar. 25th '18: 5.1 GB 7: juliotec: Knack (A0110-V0100) (CUSA00006) PS4 PKG [AUCTOR.TV] 7: 5: Mar. 13th '18: 35.7 GB 7: juliotec: Resogun (A0100-V0108) (CUSA00038) PS4 PKG [AUCTOR.TV] 7: 0: Mar. 12th '18: 803.5 MB 7: juliotec: Uncharted - The Nathan Drake Collection (A0102-V0100 ...Redump hits is 60k Unique Disc Entry!! wave gamecube gameshark hardware mailbox news nintendo odd pc playstation playstation 1 playstation 2 preproduction press press kit ps1 ps2 ps3 ps4 psx redump sega sony wii u xploder. Descargar juegos Ps2 ISOs JPN por MediaFire, MEGA y Google Drive. Wipeout Fusion - Video.emumovies official Sony Playstation Japan Disc Pack (1021) (ReDump) By Robin55. EmuMovies 2D Discs Pack for the Sony PlayStation - Japan. Availability: Site, FTP & Sync. This is a collection of 1021 Discs for the Japan Region Original Sony PlayStation. The naming convention is based on the 2019-3-31 ReDump set.A *GUI* application made for speed up ps4 game download speed *by using aria2* Based on Electron for MacOS Windows Linux. ... Playstation models and BIOS guide with redump-based DAT-file for BIOS. NO BIOS DOWNLOAD!Hi guys, I'm dumping discs for redump.org preservation project. We preserved PERFECT dumps of discs for our dat. We use PSP Filer as a rule for all our PSP dumps because the app dumps all game UMDs perfectly. However there are a few oddities which we are unable to dump perfectly with PSP Filer because they have video partitions.How to Run PS3 ISO Game Files on the RPCS3 PS3 EmulatorComplete RPCS3 Installation Guide: https://www.youtube.com/watch?v=q9eXRqgQHCcRPCS3 Official Site: htt...Sony PlayStation 4 PAL Missing Dumps. This version replaced CUSA-00052 on PSN, which was not USK (Germany) certified. Disc release of that version only has PEGI and OFLC ratings. 00563 version has PEGI, OFLC and USK ratings on disc. Barcode: 8717418435493 (packaging), 8717418435585 (Keep case)The required format for the CD images is BIN+CUE. If the CUE is missing, you can create it like this: FILE "NameOfTheBin.bin" BINARY TRACK 01 MODE2/2352 INDEX 01 00:00:00. We recommand CD images from Redump. Languages: Japanese. I can share the link if you want. Site news. Check out our playstation 2 redump selection for the very best in unique or custom, handmade pieces from our shops. From Redump Wiki. There seems to be some games missing on the PS2 side. Forums in this category with details of topics, posts, last post.Oct 17, 2020 · 分享几个ps3 redump镜像,顺带提一下如何用rpcs3玩redump的iso ... 本论坛禁止发布SWITCH和PS4相关资源,若有其他侵权内容,请致邮 ... Vimm's Lair: PlayStation 3 Vault. Welcome to the PlayStation 3 Vault. This Vault will soon contain every PlayStation 3 game released in the US, catalogued by Redump. To play them you'll need an emulator from the Emulation Lair. All downloads are in .7z format and can be opened with the free tool 7-Zip. Disc and cover scans are provided by GameTDB.Redump - disc images information. Just to clear up some confusion, Redump.org is and always will be a public preservation project that is open to new contributors. Redump Notes Arc the Lad III (Japan) (Demo 1) Japan PAPX 90099 34078: Karat PS PS2-you Pro Action Replay CDX2 (Japan) (Unl) Japan KRTCDX2 4 512323 001849. Note: many Internet Archive torrents contain a 'pad file' directory. Since this is the internet's best crowdsource for Playstation 2 information, I have some.The required format for the CD images is BIN+CUE. If the CUE is missing, you can create it like this: FILE "NameOfTheBin.bin" BINARY TRACK 01 MODE2/2352 INDEX 01 00:00:00. We recommand CD images from Redump. Search: Playstation Portable Redump. About Playstation Portable RedumpHi guys, I'm dumping discs for redump.org preservation project. We preserved PERFECT dumps of discs for our dat. We use PSP Filer as a rule for all our PSP dumps because the app dumps all game UMDs perfectly. However there are a few oddities which we are unable to dump perfectly with PSP Filer because they have video partitions.Dec 16, 2016 - We are here to help you choose the best cleaning application for Android in 2019, so make sure to check out the list belowMega Man Legends 2 ISO download is available below and exclusive to CoolROM.com. Download Mega Man Legends 2 ISO to your computer and play it with a compatible emulator.2. Purchase the "FREE DLC PROGRAM" item from there (you will not be charged). 3. In the "More"/"Configure" menu you can choose "Available Content", which will show the DLCs - tick them, and Galaxy will download them automatically. Steam: 1. On the game page for The Witcher 3 (Library/Witcher 3) you will see that there are DLCs ...Search: Redump Sony Ps2. About Ps2 Sony RedumpLike Redump there's no open lists of PS3, PS4, Wii U, XBOX 360, XBOX One. These games are dumped in redump, but missing disc keys. Torrent only. Nintendo Entertainment System Game Boy Advance Kunio-kun Nekketsu Collection Nintendo Entertainment System Kunio-kun Nekketsu Collection 2 Nintendo.Vimm's Lair: Preserving the Classics. Preserving the classics since 1997. Welcome to Vimm's Lair! This site is dedicated to nostalgia for many of the greatest game consoles ever made. Inside you'll find thousands of games, full-color manual scans, user ratings and reviews, and much more! Whether you're looking for some videogame nostalgia or ...For systems not listed here please visit the forum in the General Discussion category. General Format Dumping Guides. Disc Dumping Guide is a general disc dumping guide for DiscImageCreator with the MPF GUI. This guide is compatible with the following formats:- New elevator fix, so memory card swap is no longer needed and elevator sequence is working properly on PS4 now. Beta: - Music works now on real PS2 - Checkerboarding problem is resolved - Autoaim works properly now - HUD is recolored to authentic blue color (spent few hours in PCSX2 debugger and I finally nailed it)About M Psx Redump . Final Fantasy VII is a RPG video game published by SquareSoft released on August 15th, 1997 for the Sony PlayStation. CUE format with matching. ... PS4 bundle and PlayStation 4 Pro that come with accessories like a DualShock controller and a headset thats sure to give you the best gaming experience.Redump hits is 60k Unique Disc Entry!! nintendo odd pc playstation playstation 1 playstation 2 preproduction press press kit ps1 ps2 ps3 ps4 psx redump scan. CPS1 ROMs (136) CPS2 ROMs (239) CPS3 ROMs (9) MAME ROMs (34305). Oct 17, 2020 · 分享几个ps3 redump镜像,顺带提一下如何用rpcs3玩redump的iso ... 本论坛禁止发布SWITCH和PS4相关资源,若有其他侵权内容,请致邮 ... Ace Combat 7 PS4 Pro vs Xbox One X vs PC Graphics Comparison - Which Version Is The Best? ... order soon. Publication date 2006-10-24 Topics PlayStation Portable, Ace Combat, Skies of Deception, Redump Language English. Read PPSSPP Tutorial Here. Ace Combat has long since earned its stripes on the PlayStation 2, and now it's done the same on ...Redump - disc images information. Just to clear up some confusion, Redump.org is and always will be a public preservation project that is open to new contributors. Redump.org PS4 ISO Hello everyone. I've always downloaded the scene releases of PS4 games in ISO format and have always checked through the Redump.org database. The ISO files always had the same hash cataloged in the Redump database. However, now the scene only releases the games in PKG format. I know that ISO files do not work on PS4.Download game Samurai Shodown 2 4 Full PC win 7 XP, tải game đối kháng Samurai Shodown. Trò chơi lấy bối cảnh vào cuối thế kỉ 18 và tất cả các nhân vật của trò chơi đều sử dụng vũ khí. Trò chơi sử dụng âm nhạc của chính thời kì đó, dễ thấy trong trò chơi là âm thanh của ... Redump continues to catalog, but I can not find ISOs anywhere anymore. View entire discussion ( 4 comments) More posts from the ps4homebrew community Continue browsing in rps4homebrew rps4homebrew News, releases, and questions regarding the PS4 jailbreak, homebrew, and mods.ROMs » Sony Playstation » Top ROMs (ISOs) Top Games By Region: All Australia Europe France Germany Italy Japan Russia Spain. Featured Games: Tekken 3. Crash Bandicoot. Bloody Roar II. Resident Evil 3 - Nemesis.Probably redump store only sectors really needed to run game correctly, while Sony decided to keep them all. Command is used only with LC1 games (Redump is wrong about medievil, is LC1). The libcrypt protection is related with subchannel data stored by sectors, in redump.org this data is managed with the SBI files, displayed in a hexeditor view ...Search: Redump Sony Ps2. About Ps2 Sony RedumpThe Microsoft Entertainment pack was a collection of 16 bit games designed for Windows 3.x. These games were developed in house by Microsoft to show the gaming ability of Windows at a time when most games were being produced strictly for DOS. The first release was in 1990 with the first pack, and the last 16 bit version released was The Best of Microsoft Entertainment Pack in 1995. Search: Ps2 japan redump. org - libretro/libretro-database Redump PS2 NTSC-U (Part 1, Part 2) 2016-09 Game IDs are used for file titles Linux (for PlayStation 2) Release 1 I can share the link if you want This ISOs are known good dumps and their hash/CRC-32 matches redump's This ISOs are known good dumps and their hash/CRC-32 matches redump's.We're collaborating with Redump.org as well as TOSE... Your Donations are Helping, thank you! Reviewed by VGPC Directors on 11:43 AM Rating: 5. ... gameshark hardware mailbox news nintendo odd pc playstation playstation 1 playstation 2 preproduction press press kit ps1 ps2 ps3 ps4 psx redump sega sony wii u xploder.Redump.org PS4 ISO. Hello everyone. I've always downloaded the scene releases of PS4 games in ISO format and have always checked through the Redump.org database. The ISO files always had the same hash cataloged in the Redump database. However, now the scene only releases the games in PKG format. Ps4 stand cooling fan station for playstation 4/ps4 slim/ps4 pro, oivo ps4 pro vertical stand with dual controller ext port charger dock station and 12 game slots 31030 price from $ 13. Fallout new vegas fallout new vegas* fallout shelter fallout 3 fallout 3* fallout 4 fallout 76. Redump's dat/cue files for this collection are available here.Vimm's Lair: PlayStation Vault. Welcome to the PlayStation Vault. This Vault contains a perfect copy of every PlayStation game released in the US, scanned nightly by Redump. To play them you'll need an emulator from the Emulation Lair. All downloads are in .7z format and can be opened with the free tool 7-Zip. March's Top 10 Downloads.Download your favorites PlayStation 2 games! Relevant FAQ entries: How to emulate with PCSX2 Screenshots: (click to enlarge) Stella Deus: The Gate of Eternity (USA) PS2 ISO Download: Filename. Stella Deus - The Gate of Eternity (USA).iso download. Description:Stella Deus: The Gate of Eternity is a Tactical RPG video game published by Atlus, Pinegrow released on April 26, 2005 for the Sony ...Half dead 2. 75 for subscribers Ministers not listening to us, say scientists Delicious recipes from Ottolenghi’s new book Experts fear they have been sidelined at crucial Shop our great selection of video games, consoles and accessories for Xbox One, PS4, Wii U, Xbox 360, PS3, Wii, PS Vita, 3DS and more. Search: Huskee 20 Ton Log Splitter Parts. For systems not listed here please visit the forum in the General Discussion category. General Format Dumping Guides. Disc Dumping Guide is a general disc dumping guide for DiscImageCreator with the MPF GUI. PS4 Disc Format BD50 Label Edition Original Label ID CUSA-14405 Internal ID CUSA-14405 Data Version 01.00 Games on disc Tom Clancy's Ghost Recon: Breakpoint Redump View on Redump.org. Releases containing this disc. Name Edition Type Systems Regions Serial; Tom Clancy's Ghost Recon: Breakpoint: Original: Physical: PS4: America: CUSA-14405: Other ...Download your favorites PlayStation 2 games! Relevant FAQ entries: How to emulate with PCSX2 Screenshots: (click to enlarge) Stella Deus: The Gate of Eternity (USA) PS2 ISO Download: Filename. Stella Deus - The Gate of Eternity (USA).iso download. Description:Stella Deus: The Gate of Eternity is a Tactical RPG video game published by Atlus, Pinegrow released on April 26, 2005 for the Sony ...hutchinson fastpitch tournamenttrueliteamdp methodsnetgear nighthawk apn setupvue cmseggrider rad powerveccs spring symposium 2022 registrationjksm dswebpack webassembly - fd